<?xml version="1.0" standalone="no"?>
<!DOCTYPE svg PUBLIC "-//W3C//DTD SVG 1.1//EN" "http://www.w3.org/Graphics/SVG/1.1/DTD/svg11.dtd" >
<svg xmlns="http://www.w3.org/2000/svg">
<metadata>
Created by FontForge 20120731 at Sun Jul 23 12:04:04 2017
 By admin
</metadata>
<defs>
<font id="iconfont" horiz-adv-x="1024" >
  <font-face 
    font-family="iconfont"
    font-weight="500"
    font-stretch="normal"
    units-per-em="1024"
    panose-1="2 0 6 3 0 0 0 0 0 0"
    ascent="896"
    descent="-128"
    x-height="792"
    bbox="0 -128 1023 834"
    underline-thickness="0"
    underline-position="0"
    unicode-range="U+0078-EDA6"
  />
<missing-glyph 
 />
    <glyph glyph-name=".notdef" 
 />
    <glyph glyph-name=".notdef" 
 />
    <glyph glyph-name=".null" horiz-adv-x="0" 
 />
    <glyph glyph-name="nonmarkingreturn" horiz-adv-x="341" 
 />
    <glyph glyph-name="x" unicode="x" horiz-adv-x="1001" 
d="M281 543q-27 -1 -53 -1h-83q-18 0 -36.5 -6t-32.5 -18.5t-23 -32t-9 -45.5v-76h912v41q0 16 -0.5 30t-0.5 18q0 13 -5 29t-17 29.5t-31.5 22.5t-49.5 9h-133v-97h-438v97zM955 310v-52q0 -23 0.5 -52t0.5 -58t-10.5 -47.5t-26 -30t-33 -16t-31.5 -4.5q-14 -1 -29.5 -0.5
t-29.5 0.5h-32l-45 128h-439l-44 -128h-29h-34q-20 0 -45 1q-25 0 -41 9.5t-25.5 23t-13.5 29.5t-4 30v167h911zM163 247q-12 0 -21 -8.5t-9 -21.5t9 -21.5t21 -8.5q13 0 22 8.5t9 21.5t-9 21.5t-22 8.5zM316 123q-8 -26 -14 -48q-5 -19 -10.5 -37t-7.5 -25t-3 -15t1 -14.5
t9.5 -10.5t21.5 -4h37h67h81h80h64h36q23 0 34 12t2 38q-5 13 -9.5 30.5t-9.5 34.5q-5 19 -11 39h-368zM336 498v228q0 11 2.5 23t10 21.5t20.5 15.5t34 6h188q31 0 51.5 -14.5t20.5 -52.5v-227h-327z" />
    <glyph glyph-name="ES-xiala" unicode="&#xe61d;" 
d="M784 484l-272 -272l-272 272l-90 -89l362 -362l362 362z" />
    <glyph glyph-name="bianji" unicode="&#xe632;" 
d="M768 -45h-504q-35 0 -59.5 25t-24.5 59v505q0 35 25 61.5t59 26.5h339v-42h-339q-17 0 -29.5 -14t-12.5 -32v-505q0 -17 12 -29.5t30 -12.5h504q18 0 32 13t14 30v338h42v-338q0 -35 -26.5 -60t-61.5 -25zM517 159q-8 -8 -22 -11l-184 -91q-15 -7 -25 3.5t-5 26.5l91 184
q3 14 11 22l327 327q12 12 29.5 12t29.5 -12l75 -74q12 -13 12 -30.5t-12 -29.5zM322 112q-4 -7 1.5 -12.5t12.5 -1.5l114 68l-60 60zM428 248l44 -44l15 -15l238 238l-75 73l-237 -237l7 -7zM799 531l-45 44q-6 6 -14.5 6t-14.5 -6l-44 -43l73 -76l45 45q6 6 6 15t-6 15z
" />
    <glyph glyph-name="iconfontyoujiantou" unicode="&#xe687;" 
d="M267 824q-10 -10 -10 -23.5t10 -22.5l415 -394l-415 -394q-10 -9 -10 -22.5t10 -23.5t24.5 -10t24.5 10l432 410q19 17 19 30q0 5 -4.5 12.5t-9.5 12.5l-5 5l-432 410q-10 10 -24.5 10t-24.5 -10z" />
    <glyph glyph-name="pinglun" unicode="&#xe615;" 
d="M866 720q-29 26 -75 26q-6 0 -10 -4l-423 -422q-5 -5 -7 -11l-49 -144q-1 -4 2 -7.5t8 -1.5l145 48q7 3 11 7l424 423q4 4 4 10q0 49 -30 76zM850 652l-405 -404q-5 -5 -11 -7l-61 -20q-3 -1 -4.5 0.5t-0.5 4.5l20 60q3 7 7 11l403 402q5 4 10 3q24 -3 34 -13
q8 -8 12 -25q1 -8 -4 -12zM812 471q-9 0 -15 -6.5t-6 -15.5v-341q0 -18 -12.5 -30.5t-30.5 -12.5h-534q-18 0 -30.5 12.5t-12.5 30.5v534q0 17 12.5 29.5t30.5 12.5h384q9 0 15.5 6.5t6.5 15t-6.5 15t-15.5 6.5h-384q-36 0 -61 -25t-25 -60v-534q0 -36 25 -61t61 -25h534
q35 0 60.5 25t25.5 61v342q0 8 -6.5 14.5t-15.5 6.5z" />
    <glyph glyph-name="icon" unicode="&#xe649;" 
d="M625 384l-292 292q-9 9 -9 22t9 22.5t22 9.5t22 -10l315 -314q9 -9 9 -22t-9 -22l-315 -315q-9 -9 -22 -9t-22 9t-9 22t9 23z" />
    <glyph glyph-name="shoucang" unicode="&#xe66c;" 
d="M954 521q-2 -20 -2 -21q-4 -54 -29 -105q-38 -78 -99 -148q-56 -66 -136 -139q-65 -59 -142 -120q-19 -16 -41 -14q-15 2 -27 12q-145 115 -247 222q-71 76 -114 152q-33 58 -42 104q-1 2 -6 45l-1 5v25l1 5q0 1 0.5 9t1.5 12q12 81 60 140q67 82 168 91q52 5 103 -15
q55 -22 96 -69q1 -1 13 -16l3 4q34 44 80 69q71 38 148 25q88 -15 148 -88q55 -67 62 -156q0 -1 2 -21v-8zM899 525q-2 24 -2 25q-8 72 -54 123q-65 72 -158 63q-62 -7 -111 -55q-29 -28 -47 -72q-5 -11 -16 -11t-16 11q-16 38 -38 62q-56 63 -134 65q-76 3 -130 -49
q-88 -84 -65 -208q7 -35 35 -85q40 -72 112 -148q95 -99 232 -209q4 -3 8 0q73 59 134 114q80 73 134 136q60 69 94 143q21 44 22 95z" />
    <glyph glyph-name="xiala" unicode="&#xeda6;" 
d="M512 384l290 256l94 -88l-290 -272l-94 -88l-94 88l-290 272l94 88z" />
    <glyph glyph-name="bianji3" unicode="&#xe603;" 
d="M928 481q-9 0 -15.5 -6.5t-6.5 -15.5v-407q0 -19 -13.5 -32.5t-32.5 -13.5h-688q-19 0 -32 13.5t-13 32.5v663q0 19 13 32.5t32 13.5h443q10 0 16.5 7t6.5 16t-6.5 16t-16.5 7h-447q-36 0 -61.5 -25.5t-25.5 -61.5v-672q0 -37 25.5 -62t61.5 -25h696q36 0 61.5 25
t25.5 62v411q0 9 -6.5 15.5t-16.5 6.5v0v0zM503 188l435 436q20 19 18.5 48t-23.5 51l-41 41q-22 22 -51 23.5t-48 -17.5l-436 -436zM825 737q7 7 18.5 6.5t19.5 -8.5l41 -41q8 -8 8.5 -19t-6.5 -19l-48 -48l-81 81zM823 574l-324 -324l-81 80l325 325zM357 333l-45 -164
q-3 -12 5.5 -20.5t19.5 -5.5l164 45l-33 34l-107 -29l29 106zM357 333z" />
    <glyph glyph-name="weibiaoti509" unicode="&#xe693;" 
d="M513 145l-443 443l-63 -63l506 -506l504 505l-63 63z" />
    <glyph glyph-name="heart-o" unicode="&#xe63d;" 
d="M703 712q73 0 128.5 -47.5t65.5 -119.5q14 -98 -56 -170q-104 -108 -311 -315q-4 -4 -10.5 -4t-10.5 4q-162 163 -300 303q-55 55 -66 121q-11 60 15 115.5t79 85.5q46 27 98 27q77 0 135 -54q21 -20 46 -20q19 0 35 10q9 6 26 17q29 21 42 27q40 20 84 20zM703 777
q-59 0 -112 -27q-12 -6 -24 -13.5t-27 -18.5t-23 -16q-2 1 -4 3q-76 72 -178 72q-69 0 -130 -36q-70 -40 -104.5 -114t-20.5 -154q14 -87 83 -156q139 -140 301 -302q23 -24 55.5 -24t55.5 23q206 207 312 316q91 94 73 224q-13 97 -88 160t-169 63z" />
    <glyph glyph-name="bianji1" unicode="&#xe65b;" 
d="M348 339l-2 -2l-45 -165q-4 -16 8 -28q8 -8 19 -8q4 0 8 1l164 45v0v0q3 0 6 2l438 438q20 20 20 50q0 35 -25 60l-42 42q-25 26 -60 26q-30 0 -50 -21l-439 -438v-0.5v-1.5zM901 665l-44 -43l-70 72l43 43q5 5 13.5 4t13.5 -6l42 -42q7 -7 7 -16q0 -7 -5 -12zM426 332
l316 317l71 -72l-316 -316zM368 204l23 84l61 -61zM928.5 492q-12.5 0 -21 -9t-9.5 -22v-408q0 -17 -11 -28t-27 -11h-692q-16 0 -27.5 11t-11.5 28v667q0 16 11.5 27.5t27.5 11.5h446q12 0 21 8.5t9 21t-9 21.5t-21 9h-450q-40 0 -67.5 -27.5t-27.5 -67.5v-676
q0 -39 27.5 -67t67.5 -28h700q39 0 67 28t28 67v414q0 12 -9 21t-21.5 9z" />
    <glyph glyph-name="xiala1" unicode="&#xe623;" 
d="M508 101l-498 497q-10 10 -10 24.5t10 24.5t24.5 10t24.5 -10l448 -447l457 456q10 10 24.5 10t24.5 -10t10 -24.5t-10 -24.5z" />
    <glyph glyph-name="bianji2" unicode="&#xe64b;" 
d="M800 -128h-600v0q-45 0 -77 32t-32 77v0v600q0 46 32 78t77 32h396q5 0 9 -4t4 -10v-27q0 -6 -4 -10t-9 -4h-369v0q-34 0 -58 -24t-24 -58v0v-546v0q0 -33 24 -57t58 -24v0h546v0q34 0 58 24t24 57v0v369q0 5 4 9t10 4h27q6 0 9.5 -4t3.5 -9v-396q0 -45 -31.5 -77
t-77.5 -32v0zM848 522l-113 107l34 34q20 20 49 20.5t49 -18.5l14 -14q9 -8 15 -22t6 -26q0 -28 -19 -47zM308 200l113 -107l-166 -57zM821 494l-372 -374l-113 108l371 373z" />
    <glyph glyph-name="shoucang1" unicode="&#xe60e;" 
d="M700 822q-105 0 -184 -73q-79 73 -184 73q-115 0 -197 -86.5t-82 -208.5q0 -61 19 -122q12 -36 21 -54q31 -66 84.5 -131t102.5 -107.5t105.5 -81.5t80 -52.5t37.5 -20.5l13 -7l12 7q15 7 38 20.5t79.5 52.5t106 81.5t103 107.5t83.5 131q14 30 21 54q19 64 19 122
q0 122 -81.5 208.5t-196.5 86.5zM905 422q-2 -8 -6.5 -20t-7.5 -19l-4 -8q-25 -54 -67.5 -108t-84 -92t-90.5 -74.5t-77 -54t-52 -30.5q-25 13 -52.5 30.5t-76.5 54t-90.5 74.5t-84.5 92t-68 109q-8 16 -18 46q-17 53 -17 105q0 99 65.5 168.5t157.5 69.5q97 0 163 -76
l21 -24l21 24q66 76 163 76q92 0 157 -69.5t65 -168.5q0 -49 -17 -105z" />
    <glyph glyph-name="edit" unicode="&#xe600;" horiz-adv-x="1025" 
d="M272 683q-31 0 -53.5 -22.5t-22.5 -54.5v-462q0 -31 22.5 -53.5t53.5 -22.5h463q31 0 53.5 22.5t22.5 53.5v304l79 77v-409q0 -52 -38.5 -90t-91.5 -38h-516q-53 0 -90.5 37.5t-37.5 90.5v511q0 53 38 94t90 41h409l-77 -79h-304zM555 308l-171 -49l49 170zM572 325
l-122 121l269 268l123 -122zM897 647l-37 -36l-122 122l36 36q11 10 24.5 10.5t23.5 -8.5l77 -76q9 -10 8.5 -24t-10.5 -24v0zM897 647z" />
    <glyph glyph-name="arrow-right" unicode="&#xe612;" 
d="M330 704l56 59l394 -392l-394 -392l-56 58l331 334z" />
    <glyph glyph-name="jiantou-" unicode="&#xe619;" 
d="M326 126l259 259l-259 260q-16 15 -16 38q0 21 15 36.5t37 15.5t38 -16l297 -297q15 -15 15 -36.5t-15 -37.5l-297 -297q-15 -15 -37 -15q-21 0 -36.5 15.5t-15.5 37.5q0 21 15 37z" />
  </font>
</defs>
</svg>
